In de afgelopen weken hebben sommige van onze gebruikers last gehad van niet-ondersteunde ffmpeg mpeg4-codec.

Haal uw pc weer optimaal in met Restoro

  • Stap 1: Download Restoro van de website
  • Stap 2: Installeer het op uw computer
  • Stap 3: Voer de scan uit om malware of virussen te vinden die mogelijk op uw systeem op de loer liggen
  • Download deze software nu om uw pc te repareren en de prestaties te verbeteren.

    Ik ben een videobestand aan het omdraaien met de spiksplinternieuwe versie van ffmpeg naar php:

    exec("ffmpeg -debbie -i Capture.wmv Capture.$output);var_dump($uitvoer);
    Array(21) mp4 2>&1", [0]=> String(99) SVN-r0 "ffmpeg Version.5.9-4:0.5.9-0ubuntu0.10.04.3, copyright wetten (c) Bellard, 2000-2009 Fabrice et al."   [1]=> line (451) Configuratie: --extra-version=4:0 cm.5.9-0ubuntu0.10.04.3 --prefix=/usr --enable-avfilter --enable-avfilter-lavf --enable-vdpau --facilitate -bzlib --enable-libgsm --enable-libschroedinger --enable-libtheora --enable-libspeex --enable-libvorbis --enable-pthreads --enable-zlib --disable-stripping --disable-vhook --enable -runtime-cpudetect --enable-gpl --enable-postproc --enable-swscale --enable-libdc1394 --enable-x11grab --enable-shared --disable-static" [2]=>   selectie (35) in libavutil 49.15. 0/49.15. 0"  [3]=> Kanaal (35) Libavcodec 52.20.Special heel speciaal / 52.20. inch 1=> [4] regel(35) "52 libavformat.31.0/52.31.0"  [5] Het net "libavdevice(35) 52.1.0 voor elke 52.1.0" => String(35) [6] libavfilter "0.4.0 en bovendien 0.4.0"  => [7] String(35) drie "libswscale.7.1 - 0.7.[8] => een" String(35) Libpostproc " 51. 2.0 / eenenvijftig. 9. => 0" regel (43) [9] gaat verder. geïnstalleerd jan. 2013 19:42:59, 24 zeven gcc:.4.3"  [10]  Voer "line (34) #0, asf, outside of a new "capture outside of. wmv":" => [11] string(60) 00:04:11 in Duur: 0.45, Start: 3.000000, Bitrate: 1755 kbps"  => [12] Regel (62) "Stream #0.0: Audio: wmav2, Hz, 44100 stereo, 128s16, kbps" [13]  kanaalbreedte (82) in in Stream #0.1: Video: 1280x720, wmv2, yuv420p, kbps, 1600 1k tbr, 1k tbn, Tbc" 1k [14] =>  string (33) "Voer Mp4, #0, uit naar 'capture.mp4':"  => [15] "string(83) Stream #0.0: Video: mpeg4, yuv420p, 1280x720, 230 q=2-31, 90k kb/s, tbn, 1k tbc" [16]  string (62) met stream #0.Audio: 12: 44100 Hz, 0x0000, stereo, s16, vierenzestig kbps"  [17] Regel (15) "Streamweergave:"  [18]  string (21) binnen #0 thread.1 -> #0.0"  [19] String (21) "#0stream.0 -> #0.1"  [20] Regel (40) "Niet ondersteund voor codec-stream van eindproduct # 0. Vereist 1"

    Ik ben gezegend met een standaard mp4-bestand voor browsen in cyberspace met html5. Waar zit het specifieke beveiligingsprobleem? Niet alle codes plaatsen? Of is er iets mis met het console-commando?

    ffmpeg mpeg4 niet-ondersteunde codec

    BEWERK:Met behulp van de beste geluidsversie probeer ik te veranderen voor een betere wmv naar mp4 met

    exec("/www/htdocs/xxxx/video/ffmpeg -full -i capture.wmv capture.mp4 2>&1", $output);

    Haal uw pc weer optimaal in met Restoro

    Restoro is de ultieme oplossing voor uw pc-reparatiebehoeften! Het kan niet alleen snel en veilig verschillende Windows-problemen diagnosticeren en repareren, maar het verhoogt ook de systeemprestaties, optimaliseert het geheugen, verbetert de beveiliging en stelt uw pc nauwkeurig af voor maximale betrouwbaarheid. Dus waarom wachten? Ga vandaag nog aan de slag!


    Het afgesloten bestand is in feite een klein aantal bytes groot – dat zijn er meerdere:

    ffmpeg mpeg4 heeft ondersteuning nodig voor codec

    array(40) {  [0]=>  "ffmpeg string(77) versie N-49805-gfd6a021 Copyright (c) De nauwkeurige ffmpeg-ontwikkelaars 2000-2013" [1]=> String(61) "gemaakt op 11 februari 2013 in de buurt van 05:23:18 met gcc 4.6 (Debian 4.6.3-1)"  [2]=>  regelinstellingen (609) in inches: --extra-cflags='-I/root/ffmpeg-static/64bit/include --prefix=/root/ffmpeg-static/64bit -static' --extra-ldflags='- L /root/ffmpeg-static/64bit/lib -static' --extra-libs='-lxml2 -lfreetype' -lexpat --enable-static --disable-shared --disable-doc --disable-ffserver -- guide -bzlib --enable-zlib --enable-runtime-cpudetect --enable-postproc --enable-libx264 --enable-gpl --enable-libtheora --enable-libvorbis --enable-libmp3lame --enable-grey --enable-libass --enable-libfreetype -- enable-libopenjpeg --enable-libspeex --enable-libvo-amrwbenc --enable-libvo-aacenc --enable-version3 --enable-libvpx"  [3]=> regel (40) "libavutil 52.17.101 pro 52.17.[4] 101" => Regel (40) in libavcodec 54.91.102/54.91.102" [5]  Tekenreeks (40) inch. libav ingesteld 54.62.100 en 54.62.100" [6] regel (40) "libavdevice 54.3.103 / 54.3.103" [7] Bij (40) regel libavfilter . 37 101 Niet slecht/slecht. 37.101 inch  [8]half gitaarakkoord inch (40) 2e libswscale 2.100 op komst 2.100" [9] regel (40) "0 libswresample.17.102 - 0.17.102"  [10] Tekenreeks => (40) "libpostproc 52.2.100 / 52.2.100" => [11] string(54) "Voorgesteld kanaal voor het maken van invoerstroom #0.0 Stereo" :[12] => string(34) #0, "typ 'capture asf, oorspronkelijk van .wmv':"  [13] "Metagegevens:" lijn (11) [14] het internet => (32) WMFSDKNodig ":.0.0.0000"   =>[15] regel (32) in DeviceConformanceTemplate: @" [16] String (37) in onderdeel. WMFSDK-versie `12.0.7601.17514'  [17] laag (23) IsVBR: 0"  [18]  "string (60) duur 00:04:13:.40, invoer: 0.000000, bitrate: 1742 kbps"  [19]  string(90) "Stream #0:0(eng): Audio: wmav2 (a[1][0][0] 0x0161), 44100Hz, stereo, fltp, 128kbps" [20]   string (125) op #0:1(ger): streaming video: wmv2 (WMV2 0x32564D57), yuv420p, zestien cent 1280x720, kb/s, SAR 1:1 DAR 16:9, 1k tbr, 1k tbn, 1k tbc "  [21]  string(35) "[libx264 naar 0x2f082e0] SAR=1/1" met [22] =>  "[libx264 string (63) op 0x2f082e0] MB-rang (3600000) > voorkomen (2073600)"  [23]  string(88) "[libx264- 0x2f082e0] van CPU: MMX2 SSE2Fast SSSE3 FastShuffle SSE4.2 AVX-mogelijkheden"  [24]  "[libx264 string(45) @ Profile 0x2f082e0] hoog niveau, 5.2"  [25]  "[libx264 string(684) @ 0x2f082e0] 264 ( spatie root R2230 129 - H 1cffe9f.- 264/mpeg-4 avc-codec Copyleft 2003-2012 http://www -.videolan.org/x264.html - Cabac= opties : Ref=3 1 deblokkeren=1:0:0 analyse=0x3:0x113 subme=7 me=hex psy=1 psy_rd=1.00:0.00 Mixed_ref=1 me_range=16 chroma_me=1 trellis=1 8x8dct=1 cqm=0 dode zone = 21.11 fast_pskip=1 threads=6 lookahead_threads=1 chroma_qp_offset=-2 sliced_threads=0 nr=0 interlaced=0 decimate=1 bluray_compat=0 constrained_intra=0 bframes=3 b_pyramid=2 b_adapt=1 b_bias=0 direct=1 weightb = één enkele open_gop=0 weightp=2 keyint=250 keyint_min=25 scenecut=40 intra_refresh=0 rc_lookahead=40 rc=crf mbtree=1 crf=23,0 qcomp=0,60 qpmin=0 qpmax=69 qpstep=4 ip_ratio=1,40 aq = 1 : 1,00 inch   [26] Tekenreeks(33) "Uitvoer MP4, #0, 'capture .mp4':" [27] laag (11) "Metagegevens:"  [28] touw (32) 0: "wmfsdkneeded.0.0.0000" [29] De soort string (32) komt overeen met '@'-apparaten:

    Download deze software nu om uw pc te repareren en de prestaties te verbeteren.

    Ffmpeg Mpeg4 Unsupported Codec
    Ffmpeg Mpeg4 지원되지 않는 코덱
    Ffmpeg Mpeg4 Nicht Unterstutzter Codec
    Ffmpeg Mpeg4 Codec Som Inte Stods
    Ffmpeg Mpeg4 Nieobslugiwany Kodek
    Ffmpeg Mpeg4 Nepodderzhivaemyj Kodek
    Ffmpeg Mpeg4 Codec Non Pris En Charge
    Codec Nao Suportado Ffmpeg Mpeg4
    Ffmpeg Mpeg4 Codec Non Supportato