In den letzten Wochen hat eine kleine Anzahl unserer Benutzer den nicht unterstützten ffmpeg mpeg4-Codec gekündigt.

Bringen Sie Ihren PC mit Restoro wieder in Bestform

  • Schritt 1: Laden Sie Restoro von der Website herunter
  • Schritt 2: Installieren Sie es auf Ihrem Computer
  • Schritt 3: Führen Sie den Scan durch, um Malware oder Viren zu finden, die möglicherweise in Ihrem System lauern
  • Laden Sie diese Software jetzt herunter, um Ihren PC zu reparieren und seine Leistung zu verbessern.

    Ich konvertiere eine Videoclip-Datei mit der neuen Version von ffmpeg in php:

    exec("ffmpeg -n -i Capture.wmv Capture.$output);var_dump($ausgabe);
    Array(21) mp4 2>&1", [0]=> String(99) SVN-r0 "ffmpeg Version.5.9-4:0.5.9-0ubuntu0.10.04.3, copyright (c) Bellard, 2000-2009 Fabrice et al."   [1]=> string (451) Konfiguration: --extra-version=4:0 cm.5.9-0ubuntu0.10.04.3 --prefix=/usr --enable-avfilter --enable-avfilter-lavf --enable-vdpau --enable -bzlib --enable-libgsm --enable-libschroedinger --enable-libtheora --enable-libspeex --enable-libvorbis --enable-pthreads --enable-zlib --disable-stripping --disable-vhook --enable -runtime-cpudetect --enable-gpl --enable-postproc --enable-swscale --enable-libdc1394 --enable-x11grab --enable-shared --disable-static" [2]=>   Zeile (35) bis hin zu libavutil 49.15. 0/49.15. 0"  [3]=> Kanal (35) Libavcodec 52.20.Special Spezial für jeden 52.20. Zoll 1 => [4] Zeile (35) "52 libavformat.31.0/52.31.0"  [5] Die Zeile "libavdevice(35) 52.1.0 wenn es um jede 52.1.0 geht" => String(35) [6] libavfilter "0.4.0 und 0.4.0"  => [7] String(35) 0 "libswscale.7.1 . . . 0.7.[8] => ein" String(35) Libpostproc " einundfünfzig. 2.0 / einundfünfzig. 2. => 0" line(43) [9] fährt fort. Baujahr Jan. 2013 19:42:59, 24 4 gcc:.4.3"  [10]  Geben Sie "Zeile (34) #0, asf, Äußeres der "Erfassung außerhalb bezüglich. wmv":" => [11] string(60) 00:04:11 befindet sich in Duration: 0.45, Start: 3.000000, Bitrate: 1755 kbps"  => [12] Zeile (62) "Stream #0.0: Audio: wmav2, Hz, 44100 stereo, 128s16, kbps" [13]  Sichtweite (82) in Zoll Stream #0.1: Video: 1280x720, wmv2, yuv420p, kbps, sechzehnhundert 1k tbr, 1k tbn, Tbc" 1k [14] =>  string(33) "Ausgabe Mp4, #0, zu 'capture.mp4':"  => [15] "string(83) Stream #0.0: Video: mpeg4, yuv420p, 1280x720, 230 q=2-31, 90kb/s, tbn, 1k tbc" [16]  Gruppierung (62) mit Stream #0.Audio: 1: 44100 Hz, 0x0000, Stereo, s16, 64 kbps"  [17] Zeile (15) „Streamanzeige:“  [18]  string(21) inch #0 thread.1 -> #0.0"  [19] String(21) "#0stream.0 -> #0.1"  [20] Zeile (40) „Nicht unterstützt für Ausgabe-Codec-Pool Nr. 0. Erfordert 1“

    Ich habe eine festgelegte MP4-Datei zum Surfen im Internet, wenn es um HTML5 geht. Wo ist der Sicherheitsfehler? Nicht alle Codes installiert? Oder stimmt etwas mit dem Methodenbefehl nicht?

    ffmpeg mpeg4 benötigt Unterstützungscodec

    BEARBEITEN:Mit der besten statischen Version versuche ich, wmv zu ändern, das mp4 mit

    hilft

    exec("/www/htdocs/xxxx/video/ffmpeg -ful -i capture.wmv capture.mp4 2>&1", $output);

    Bringen Sie Ihren PC mit Restoro wieder in Bestform

    Restoro ist die ultimative Lösung für Ihren PC-Reparaturbedarf! Es diagnostiziert und repariert nicht nur schnell und sicher verschiedene Windows-Probleme, sondern erhöht auch die Systemleistung, optimiert den Speicher, verbessert die Sicherheit und optimiert Ihren PC für maximale Zuverlässigkeit. Warum also warten? Beginnen Sie noch heute!


    Die Shutdown-Datei ist im Grunde nur ein paar Bytes groß – das ist alles, was dabei rauskommt:

    ffmpeg mpeg4 benötigt Unterstützungscodec

    array(40) {  [0]=>  "ffmpeg string (77) Version N-49805-gfd6a021 Copyright (c) The Accurate ffmpeg Developers 2000-2013" [1]=> String(61) "erstellt am 11. Februar 2013 um 05:23:18 mittels gcc 4.6 (Debian 4.6.3-1)"  [2]=>  Zeilenkonfiguration (609) in Einfügungen: --extra-cflags='-I/root/ffmpeg-static/64bit/include --prefix=/root/ffmpeg-static/64bit -static' --extra-ldflags='- L /root/ffmpeg-static/64bit/lib -static' --extra-libs='-lxml2 -lfreetype' -lexpat --enable-static --disable-shared --disable-doc --disable-ffserver -- enable -bzlib --enable-zlib --enable-runtime-cpudetect --enable-postproc --enable-libx264 --enable-gpl --enable-libtheora --enable-libvorbis --enable-libmp3lame --enable-grey --enable-libass --enable-libfreetype -- enable-libopenjpeg --enable-libspeex --enable-libvo-amrwbenc --enable-libvo-aacenc --enable-version3 --enable-libvpx"  [3]=> Zeile (40) "libavutil 52.17.101 guru 52.17.[4] 101" => Zeile (40) vorhanden in libavcodec 54.91.102/54.91.102" [5]  Schnur (40) Zoll. libav-Format 54.62.100 sowie 54.62.100" [6] Zeile (40) "libavdevice 54.3.103 für jede 54.3.103" [7] Bei (40) Bereich libavfilter . 37 101 Nicht schlecht/schlecht. 37,101 Zoll  [8]halbe Sehne Zoll breit (40) 2. libswscale 2.100 2. 2.100" [9] limit (40) "0 libswresample.17.102 und 0.17.102"  [10] Zeichenkette => (40) "libpostproc 52.2.100 / 52.2.100" => [11] string(54) "Empfohlener Kanal für Layout-Eingangswiedergabe #0.0 Stereo" :[12] => string(34) #0, "tippe 'capture asf, from .wmv':"  [13] "Metadaten:" Leitung (11) [14] Rohr => (32) WMFSDKNeeded „:.0.0.0000“   =>[15] das Web (32) in DeviceConformanceTemplate: @" [16] Zeichenfolge (37) im Format. WMFSDK-Version „12.0.7601.17514“  [17] Zeile (23) IsVBR: 0"  [18]  "string (60) time 00:04:13:.40, input: 0.000000, bitrate: 1742 kbps"  [19]  string(90) "Stream #0:0(eng): Audio: wmav2 (a[1][0][0] . 0x0161), 44100Hz, stereo, fltp, 128kbps" [20]   string(125) to #0:1(ger): streaming movie: wmv2 (WMV2 / 0x32564D57), yuv420p, seventeen cent 1280x720, kb/s, SAR 1:1 DAR 16:9, 1k tbr, 1k tbn, 1k tbc "  [21]  string(35) "[libx264 bis 0x2f082e0] SAR=1/1" das hat [22] =>  "[libx264 string(63) - 0x2f082e0] MB-Rang (3600000) > reduziert (2073600)"  [23]  string(88) "[libx264- 0x2f082e0] für CPU: MMX2 SSE2Fast SSSE3 FastShuffle SSE4.2 AVX-Fähigkeiten"  [24]  "[libx264 string(45) @ Profile 0x2f082e0] Signifikante Ebene, 5.2"  [25]  "[libx264 string(684) @ 0x2f082e0] 264 - cheer R2230 129 - H 1cffe9f.- 264/mpeg-4 avc-codec Copyleft 2003-2012 http://www -.videolan.org/x264.html - Cabac= options : Ref=3 single deblock=1:0:0 analysis=0x3:0x113 subme=7 me=hex psy=1 psy_rd=1.00:0.00 Mixed_ref=1 me_range=16 chroma_me=1 trellis=1 8x8dct=1 cqm=0 wertlos zone = 21.11 fast_pskip=1 threads=6 lookahead_threads=1 chroma_qp_offset=-2 sliced_threads=0 nr=0 interlaced=0 decimate=1 bluray_compat=0 constrained_intra=0 bframes=3 b_pyramid=2 b_adapt=1 b_bias=0 direct=1 weightb = 1 open_gop=0 weightp=2 keyint=250 keyint_min=25 scenecut=40 intra_refresh=0 rc_lookahead=40 rc=crf mbtree=1 crf=23.0 qcomp=0.60 qpmin=0 qpmax=69 qpstep=4 ip_ratio=1.40 aq= 1 : 1,00 Zoll   [26] Zeichenkette(33) "Ausgabe MP4, #0, 'capture .mp4':" [27] Zeile (11) "Metadaten:"  [28] Zeile (32) 0: "wmfsdkneeded.0.0.0000" [29] Das string(32)-Modell eignet sich für '@'-Geräte:

    Laden Sie diese Software jetzt herunter, um Ihren PC zu reparieren und seine Leistung zu verbessern.

    Ffmpeg Mpeg4 Unsupported Codec
    Ffmpeg Mpeg4 지원되지 않는 코덱
    Ffmpeg Mpeg4 Codec Som Inte Stods
    Ffmpeg Mpeg4 Nieobslugiwany Kodek
    Ffmpeg Mpeg4 Nepodderzhivaemyj Kodek
    Ffmpeg Mpeg4 Codec Non Pris En Charge
    Codec Nao Suportado Ffmpeg Mpeg4
    Ffmpeg Mpeg4 Codec Non Supportato
    Ffmpeg Mpeg4 Niet Ondersteunde Codec